  0
SECTION
  2
HEADER
  9
$ACADVER
  1
AC1009
  9
$INSBASE
 10
0.0
 20
0.0
 30
0.0
  9
$EXTMIN
 10
-0.41609
 20
-0.469784
 30
0.0
  9
$EXTMAX
 10
16.46044
 20
10.642343
 30
0.0
  9
$LIMMIN
 10
0.0
 20
0.0
  9
$LIMMAX
 10
12.0
 20
9.0
  9
$ORTHOMODE
 70
     0
  9
$REGENMODE
 70
     1
  9
$FILLMODE
 70
     0
  9
$QTEXTMODE
 70
     0
  9
$MIRRTEXT
 70
     1
  9
$DRAGMODE
 70
     2
  9
$LTSCALE
 40
1.0
  9
$OSMODE
 70
     0
  9
$ATTMODE
 70
     1
  9
$TEXTSIZE
 40
0.1
  9
$TRACEWID
 40
0.1
  9
$TEXTSTYLE
  7
ROMANS
  9
$CLAYER
  8
0
  9
$CELTYPE
  6
BYLAYER
  9
$CECOLOR
 62
   256
  9
$DIMSCALE
 40
1.0
  9
$DIMASZ
 40
0.18
  9
$DIMEXO
 40
0.0625
  9
$DIMDLI
 40
0.38
  9
$DIMRND
 40
0.0
  9
$DIMDLE
 40
0.0
  9
$DIMEXE
 40
0.18
  9
$DIMTP
 40
0.0
  9
$DIMTM
 40
0.0
  9
$DIMTXT
 40
0.18
  9
$DIMCEN
 40
0.09
  9
$DIMTSZ
 40
0.0
  9
$DIMTOL
 70
     0
  9
$DIMLIM
 70
     0
  9
$DIMTIH
 70
     1
  9
$DIMTOH
 70
     1
  9
$DIMSE1
 70
     0
  9
$DIMSE2
 70
     0
  9
$DIMTAD
 70
     0
  9
$DIMZIN
 70
     0
  9
$DIMBLK
  1

  9
$DIMASO
 70
     1
  9
$DIMSHO
 70
     1
  9
$DIMPOST
  1

  9
$DIMAPOST
  1

  9
$DIMALT
 70
     0
  9
$DIMALTD
 70
     2
  9
$DIMALTF
 40
25.4
  9
$DIMLFAC
 40
1.0
  9
$DIMTOFL
 70
     0
  9
$DIMTVP
 40
0.0
  9
$DIMTIX
 70
     0
  9
$DIMSOXD
 70
     0
  9
$DIMSAH
 70
     0
  9
$DIMBLK1
  1

  9
$DIMBLK2
  1

  9
$DIMSTYLE
  2
STANDARD
  9
$DIMCLRD
 70
     0
  9
$DIMCLRE
 70
     0
  9
$DIMCLRT
 70
     0
  9
$DIMTFAC
 40
1.0
  9
$DIMGAP
 40
0.09
  9
$LUNITS
 70
     2
  9
$LUPREC
 70
     4
  9
$SKETCHINC
 40
0.1
  9
$FILLETRAD
 40
0.0
  9
$AUNITS
 70
     0
  9
$AUPREC
 70
     0
  9
$MENU
  1
acad
  9
$ELEVATION
 40
0.0
  9
$PELEVATION
 40
0.0
  9
$THICKNESS
 40
0.0
  9
$LIMCHECK
 70
     0
  9
$BLIPMODE
 70
     1
  9
$CHAMFERA
 40
0.0
  9
$CHAMFERB
 40
0.0
  9
$SKPOLY
 70
     0
  9
$TDCREATE
 40
2449286.453429
  9
$TDUPDATE
 40
2451655.582192
  9
$TDINDWG
 40
0.116087
  9
$TDUSRTIMER
 40
0.116087
  9
$USRTIMER
 70
     1
  9
$ANGBASE
 50
0.0
  9
$ANGDIR
 70
     0
  9
$PDMODE
 70
     0
  9
$PDSIZE
 40
0.0
  9
$PLINEWID
 40
0.0
  9
$COORDS
 70
     2
  9
$SPLFRAME
 70
     0
  9
$SPLINETYPE
 70
     6
  9
$SPLINESEGS
 70
     8
  9
$ATTDIA
 70
     0
  9
$ATTREQ
 70
     1
  9
$HANDLING
 70
     1
  9
$HANDSEED
  5
C04
  9
$SURFTAB1
 70
     6
  9
$SURFTAB2
 70
     6
  9
$SURFTYPE
 70
     6
  9
$SURFU
 70
     6
  9
$SURFV
 70
     6
  9
$UCSNAME
  2

  9
$UCSORG
 10
0.0
 20
0.0
 30
0.0
  9
$UCSXDIR
 10
1.0
 20
0.0
 30
0.0
  9
$UCSYDIR
 10
0.0
 20
1.0
 30
0.0
  9
$PUCSNAME
  2

  9
$PUCSORG
 10
0.0
 20
0.0
 30
0.0
  9
$PUCSXDIR
 10
1.0
 20
0.0
 30
0.0
  9
$PUCSYDIR
 10
0.0
 20
1.0
 30
0.0
  9
$USERI1
 70
     0
  9
$USERI2
 70
     0
  9
$USERI3
 70
     0
  9
$USERI4
 70
     0
  9
$USERI5
 70
     0
  9
$USERR1
 40
0.0
  9
$USERR2
 40
0.0
  9
$USERR3
 40
0.0
  9
$USERR4
 40
0.0
  9
$USERR5
 40
0.0
  9
$WORLDVIEW
 70
     1
  9
$SHADEDGE
 70
     3
  9
$SHADEDIF
 70
    70
  9
$TILEMODE
 70
     1
  9
$MAXACTVP
 70
    16
  9
$PLIMCHECK
 70
     0
  9
$PEXTMIN
 10
1.000000E+020
 20
1.000000E+020
 30
1.000000E+020
  9
$PEXTMAX
 10
-1.000000E+020
 20
-1.000000E+020
 30
-1.000000E+020
  9
$PLIMMIN
 10
0.0
 20
0.0
  9
$PLIMMAX
 10
12.0
 20
9.0
  9
$UNITMODE
 70
     0
  9
$VISRETAIN
 70
     0
  9
$PLINEGEN
 70
     0
  9
$PSLTSCALE
 70
     0
  0
ENDSEC
  0
SECTION
  2
TABLES
  0
TABLE
  2
VPORT
 70
     2
  0
VPORT
  2
*ACTIVE
 70
     0
 10
0.0
 20
0.0
 11
1.0
 21
1.0
 12
8.022175
 22
5.185561
 13
0.0
 23
0.0
 14
1.0
 24
1.0
 15
0.0
 25
0.0
 16
0.0
 26
0.0
 36
1.0
 17
0.0
 27
0.0
 37
0.0
 40
11.435998
 41
1.772059
 42
50.0
 43
0.0
 44
0.0
 50
0.0
 51
0.0
 71
     0
 72
   100
 73
     1
 74
     1
 75
     0
 76
     0
 77
     0
 78
     0
  0
ENDTAB
  0
TABLE
  2
LTYPE
 70
     1
  0
LTYPE
  2
CONTINUOUS
 70
     0
  3
Solid line
 72
    65
 73
     0
 40
0.0
  0
ENDTAB
  0
TABLE
  2
LAYER
 70
     5
  0
LAYER
  2
0
 70
     0
 62
     7
  6
CONTINUOUS
  0
LAYER
  2
3
 70
     0
 62
     3
  6
CONTINUOUS
  0
LAYER
  2
5
 70
     0
 62
     5
  6
CONTINUOUS
  0
LAYER
  2
DEFPOINTS
 70
     0
 62
     7
  6
CONTINUOUS
  0
LAYER
  2
6
 70
     0
 62
     6
  6
CONTINUOUS
  0
ENDTAB
  0
TABLE
  2
STYLE
 70
     2
  0
STYLE
  2
STANDARD
 70
     0
 40
0.0
 41
1.0
 50
0.0
 71
     0
 42
0.2
  3
txt
  4

  0
STYLE
  2
ROMANS
 70
     0
 40
0.1
 41
1.0
 50
0.0
 71
     0
 42
0.1
  3
romans
  4

  0
ENDTAB
  0
TABLE
  2
VIEW
 70
     0
  0
ENDTAB
  0
TABLE
  2
UCS
 70
     0
  0
ENDTAB
  0
TABLE
  2
APPID
 70
     1
  0
APPID
  2
ACAD
 70
     0
  0
ENDTAB
  0
TABLE
  2
DIMSTYLE
 70
     1
  0
DIMSTYLE
  2
STANDARD
 70
     0
  3

  4

  5

  6

  7

 40
1.0
 41
0.18
 42
0.0625
 43
0.38
 44
0.18
 45
0.0
 46
0.0
 47
0.0
 48
0.0
140
0.18
141
0.09
142
0.0
143
25.4
144
1.0
145
0.0
146
1.0
147
0.09
 71
     0
 72
     0
 73
     1
 74
     1
 75
     0
 76
     0
 77
     0
 78
     0
170
     0
171
     2
172
     0
173
     0
174
     0
175
     0
176
     0
177
     0
178
     0
  0
ENDTAB
  0
ENDSEC
  0
SECTION
  2
BLOCKS
  0
BLOCK
  8
0
  2
$MODEL_SPACE
 70
     0
 10
0.0
 20
0.0
 30
0.0
  3
$MODEL_SPACE
  1

  0
ENDBLK
  5
34
  8
0
  0
BLOCK
 67
     1
  8
0
  2
$PAPER_SPACE
 70
     0
 10
0.0
 20
0.0
 30
0.0
  3
$PAPER_SPACE
  1

  0
ENDBLK
  5
32
 67
     1
  8
0
  0
BLOCK
  8
0
  2
*D0
 70
     1
 10
0.0
 20
0.0
 30
0.0
  3
*D0
  1

  0
LINE
  5
BAE
  8
0
  6
BYBLOCK
 62
     0
 10
3.675119
 20
6.004367
 30
0.0
 11
3.675119
 21
5.635066
 31
0.0
  0
LINE
  5
BAF
  8
0
  6
BYBLOCK
 62
     0
 10
5.439142
 20
6.004367
 30
0.0
 11
5.439142
 21
5.635066
 31
0.0
  0
LINE
  5
BB0
  8
0
  6
BYBLOCK
 62
     0
 10
3.855119
 20
5.815066
 30
0.0
 11
4.162369
 21
5.815066
 31
0.0
  0
LINE
  5
BB1
  8
0
  6
BYBLOCK
 62
     0
 10
5.259142
 20
5.815066
 30
0.0
 11
4.951892
 21
5.815066
 31
0.0
  0
SOLID
  5
BB2
  8
0
  6
BYBLOCK
 62
     0
 10
3.855119
 20
5.845066
 30
0.0
 11
3.855119
 21
5.785066
 31
0.0
 12
3.675119
 22
5.815066
 32
0.0
 13
3.675119
 23
5.815066
 33
0.0
  0
SOLID
  5
BB3
  8
0
  6
BYBLOCK
 62
     0
 10
5.259142
 20
5.845066
 30
0.0
 11
5.259142
 21
5.785066
 31
0.0
 12
5.439142
 22
5.815066
 32
0.0
 13
5.439142
 23
5.815066
 33
0.0
  0
TEXT
  8
0
  40
0.1
  5
C01
  62
0
  72
0
  71
0
 10
4.35713
 20
5.63807
 30
0.000000
  1
1.77(45)
  7
ROMANS
  0
POINT
  5
BB6
  8
DEFPOINTS
  6
BYBLOCK
 62
     0
 10
3.675119
 20
6.066867
 30
0.0
  0
POINT
  5
BB7
  8
DEFPOINTS
  6
BYBLOCK
 62
     0
 10
5.439142
 20
6.066867
 30
0.0
  0
POINT
  5
BB8
  8
DEFPOINTS
  6
BYBLOCK
 62
     0
 10
5.439142
 20
5.815066
 30
0.0
  0
ENDBLK
  5
BB9
  8
0
  0
BLOCK
  8
0
  2
*D1
 70
     1
 10
0.0
 20
0.0
 30
0.0
  3
*D1
  1

  0
LINE
  5
BC0
  8
0
  6
BYBLOCK
 62
     0
 10
5.606643
 20
9.27734
 30
0.0
 11
5.934146
 21
9.27734
 31
0.0
  0
LINE
  5
BC1
  8
0
  6
BYBLOCK
 62
     0
 10
5.606643
 20
6.255719
 30
0.0
 11
5.934146
 21
6.255719
 31
0.0
  0
LINE
  5
BC2
  8
0
  6
BYBLOCK
 62
     0
 10
5.754146
 20
9.09734
 30
0.0
 11
5.754146
 21
7.93272
 31
0.0
  0
LINE
  5
BC3
  8
0
  6
BYBLOCK
 62
     0
 10
5.754146
 20
6.435719
 30
0.0
 11
5.754146
 21
7.600339
 31
0.0
  0
SOLID
  5
BC4
  8
0
  6
BYBLOCK
 62
     0
 10
5.724146
 20
9.09734
 30
0.0
 11
5.784146
 21
9.09734
 31
0.0
 12
5.754146
 22
9.27734
 32
0.0
 13
5.754146
 23
9.27734
 33
0.0
  0
SOLID
  5
BC5
  8
0
  6
BYBLOCK
 62
     0
 10
5.724146
 20
6.435719
 30
0.0
 11
5.784146
 21
6.435719
 31
0.0
 12
5.754146
 22
6.255719
 32
0.0
 13
5.754146
 23
6.255719
 33
0.0
  0
TEXT
  8
0
  40
0.1
  5
C02
  62
0
  72
0
  71
0
 10
5.55415
 20
7.58953
 30
0.000000
  1
3.0(77)
  7
ROMANS
  0
POINT
  5
BC7
  8
DEFPOINTS
  6
BYBLOCK
 62
     0
 10
5.544143
 20
9.27734
 30
0.0
  0
POINT
  5
BC8
  8
DEFPOINTS
  6
BYBLOCK
 62
     0
 10
5.544143
 20
6.255719
 30
0.0
  0
POINT
  5
BC9
  8
DEFPOINTS
  6
BYBLOCK
 62
     0
 10
5.754146
 20
6.255719
 30
0.0
  0
ENDBLK
  5
BCA
  8
0
  0
BLOCK
  8
0
  2
RAIL
 70
     0
 10
0.0
 20
0.0
 30
0.0
  3
RAIL
  1

  0
TRACE
  5
BCD
  8
6
 10
0.306922
 20
-0.347359
 30
0.0
 11
0.306922
 21
-0.387359
 31
0.0
 12
1.226922
 22
-0.347359
 32
0.0
 13
1.226922
 23
-0.387359
 33
0.0
  0
POLYLINE
  5
BCE
  8
6
 66
     1
 10
0.0
 20
0.0
 30
0.0
 40
0.04
 41
0.04
  0
VERTEX
  5
BF4
  8
6
 10
0.255422
 20
-0.163559
 30
0.0
 42
0.414214
  0
VERTEX
  5
BF5
  8
6
 10
0.203922
 20
-0.112059
 30
0.0
 42
1.0
  0
SEQEND
  5
BF6
  8
6
  0
TRACE
  5
BCF
  8
6
 10
0.077922
 20
-0.092059
 30
0.0
 11
0.077922
 21
-0.132059
 31
0.0
 12
0.203922
 22
-0.092059
 32
0.0
 13
0.203922
 23
-0.132059
 33
0.0
  0
TRACE
  5
BD0
  8
6
 10
0.275422
 20
-0.163559
 30
0.0
 11
0.235422
 21
-0.163559
 31
0.0
 12
0.275422
 22
-0.315859
 32
0.0
 13
0.235422
 23
-0.315859
 33
0.0
  0
POLYLINE
  5
BD1
  8
6
 66
     1
 10
0.0
 20
0.0
 30
0.0
 40
0.04
 41
0.04
  0
VERTEX
  5
BF7
  8
6
 10
0.255422
 20
-0.315859
 30
0.0
 42
0.414214
  0
VERTEX
  5
BF8
  8
6
 10
0.306922
 20
-0.367359
 30
0.0
 42
1.0
  0
SEQEND
  5
BF9
  8
6
  0
TRACE
  5
BD2
  8
6
 10
1.455922
 20
-0.092059
 30
0.0
 11
1.455922
 21
-0.132059
 31
0.0
 12
1.329922
 22
-0.092059
 32
0.0
 13
1.329922
 23
-0.132059
 33
0.0
  0
TRACE
  5
BD3
  8
6
 10
1.258422
 20
-0.163559
 30
0.0
 11
1.298422
 21
-0.163559
 31
0.0
 12
1.258422
 22
-0.315859
 32
0.0
 13
1.298422
 23
-0.315859
 33
0.0
  0
POLYLINE
  5
BD4
  8
6
 66
     1
 10
0.0
 20
0.0
 30
0.0
 40
0.04
 41
0.04
  0
VERTEX
  5
BFA
  8
6
 10
1.278422
 20
-0.315859
 30
0.0
 42
-0.414214
  0
VERTEX
  5
BFB
  8
6
 10
1.226922
 20
-0.367359
 30
0.0
 42
-1.0
  0
SEQEND
  5
BFC
  8
6
  0
POLYLINE
  5
BD5
  8
6
 66
     1
 10
0.0
 20
0.0
 30
0.0
 40
0.04
 41
0.04
  0
VERTEX
  5
BFD
  8
6
 10
1.278422
 20
-0.163559
 30
0.0
 42
-0.414214
  0
VERTEX
  5
BFE
  8
6
 10
1.329922
 20
-0.112059
 30
0.0
 42
-1.0
  0
SEQEND
  5
BFF
  8
6
  0
ENDBLK
  5
BD7
  8
0
  0
BLOCK
  8
0
  2
*D3
 70
     1
 10
0.0
 20
0.0
 30
0.0
  3
*D3
  1

  0
LINE
  5
BDD
  8
0
  6
BYBLOCK
 62
     0
 10
6.510156
 20
6.927641
 30
0.0
 11
6.510156
 21
5.530148
 31
0.0
  0
LINE
  5
BDE
  8
0
  6
BYBLOCK
 62
     0
 10
8.757185
 20
6.738789
 30
0.0
 11
8.757185
 21
5.530148
 31
0.0
  0
LINE
  5
BDF
  8
0
  6
BYBLOCK
 62
     0
 10
6.690156
 20
5.710148
 30
0.0
 11
7.207956
 21
5.710148
 31
0.0
  0
LINE
  5
BE0
  8
0
  6
BYBLOCK
 62
     0
 10
8.577185
 20
5.710148
 30
0.0
 11
8.059385
 21
5.710148
 31
0.0
  0
SOLID
  5
BE1
  8
0
  6
BYBLOCK
 62
     0
 10
6.690156
 20
5.740148
 30
0.0
 11
6.690156
 21
5.680148
 31
0.0
 12
6.510156
 22
5.710148
 32
0.0
 13
6.510156
 23
5.710148
 33
0.0
  0
SOLID
  5
BE2
  8
0
  6
BYBLOCK
 62
     0
 10
8.577185
 20
5.740148
 30
0.0
 11
8.577185
 21
5.680148
 31
0.0
 12
8.757185
 22
5.710148
 32
0.0
 13
8.757185
 23
5.710148
 33
0.0
  0
TEXT
  8
0
  40
0.1
  5
C03
  62
0
  72
0
  71
0
 10
7.43367
 20
5.53315
 30
0.000000
  1
2.3(58.5)
  7
ROMANS
  0
POINT
  5
BE4
  8
DEFPOINTS
  6
BYBLOCK
 62
     0
 10
6.510156
 20
6.990141
 30
0.0
  0
POINT
  5
BE5
  8
DEFPOINTS
  6
BYBLOCK
 62
     0
 10
8.757185
 20
6.801289
 30
0.0
  0
POINT
  5
BE6
  8
DEFPOINTS
  6
BYBLOCK
 62
     0
 10
8.757185
 20
5.710148
 30
0.0
  0
ENDBLK
  5
BE7
  8
0
  0
ENDSEC
  0
SECTION
  2
ENTITIES
  0
TEXT
  5
7F4
  8
0
 10
8.625235
 20
2.865979
 30
0.0
 40
0.1
  1

  7
ROMANS
  0
TEXT
  5
7F9
  8
0
 10
11.278751
 20
5.776637
 30
0.0
 40
0.1
  1

  7
ROMANS
  0
POINT
  5
7FC
  8
0
 10
16.46044
 20
10.642343
 30
0.0
  0
POINT
  5
7FD
  8
0
 10
-0.41609
 20
-0.469784
 30
0.0
  0
TEXT
  5
7FE
  8
0
 10
8.625235
 20
3.102292
 30
0.0
 40
0.1
  1

  7
ROMANS
  0
TEXT
  5
800
  8
0
 10
9.068524
 20
3.102352
 30
0.0
 40
0.1
  1

  7
ROMANS
  0
TEXT
  5
801
  8
0
 10
6.376752
 20
4.373591
 30
0.0
 40
0.1
  1

  7
ROMANS
  0
LINE
  5
802
  8
5
 10
4.859049
 20
9.017191
 30
0.0
 11
4.275674
 21
9.017191
 31
0.0
  0
LINE
  5
803
  8
5
 10
4.816218
 20
8.737339
 30
0.0
 11
4.318504
 21
8.737339
 31
0.0
  0
LINE
  5
804
  8
5
 10
3.949758
 20
8.63243
 30
0.0
 11
5.159344
 21
8.63243
 31
0.0
  0
LINE
  5
805
  8
5
 10
5.159344
 20
9.102112
 30
0.0
 11
3.949758
 21
9.102112
 31
0.0
  0
CIRCLE
  5
806
  8
5
 10
4.593994
 20
8.815579
 30
0.0
 40
0.026673
  0
ARC
  5
807
  8
5
 10
4.275674
 20
8.957191
 30
0.0
 40
0.06
 50
90.0
 51
194.999374
  0
LINE
  5
808
  8
5
 10
3.909758
 20
9.062112
 30
0.0
 11
3.909758
 21
8.67243
 31
0.0
  0
ARC
  5
809
  8
5
 10
3.949758
 20
8.67243
 30
0.0
 40
0.04
 50
180.0
 51
270.0
  0
TEXT
  5
80A
  8
0
 10
4.108748
 20
8.960689
 30
0.0
 40
0.1
  1
1
  7
ROMANS
  0
LINE
  5
80B
  8
5
 10
3.958166
 20
8.940596
 30
0.0
 11
3.919485
 21
8.867271
 31
0.0
  0
LINE
  5
80C
  8
5
 10
3.919485
 20
8.867271
 30
0.0
 11
3.958166
 21
8.793484
 31
0.0
  0
TEXT
  5
80D
  8
0
 10
4.149478
 20
8.675058
 30
0.0
 40
0.1
  1
6
  7
ROMANS
  0
LINE
  5
80E
  8
5
 10
4.060957
 20
8.793484
 30
0.0
 11
3.958166
 21
8.793484
 31
0.0
  0
LINE
  5
80F
  8
5
 10
4.061274
 20
8.940596
 30
0.0
 11
3.958166
 21
8.940596
 31
0.0
  0
LINE
  5
810
  8
5
 10
4.060957
 20
8.793484
 30
0.0
 11
4.099537
 21
8.86752
 31
0.0
  0
LINE
  5
811
  8
5
 10
4.099537
 20
8.86752
 30
0.0
 11
4.060832
 21
8.940551
 31
0.0
  0
CIRCLE
  5
812
  8
5
 10
4.009752
 20
8.86752
 30
0.0
 40
0.034
  0
ARC
  5
813
  8
5
 10
3.949758
 20
9.062112
 30
0.0
 40
0.04
 50
90.0
 51
180.0
  0
CIRCLE
  5
814
  8
5
 10
4.379994
 20
8.815579
 30
0.0
 40
0.026673
  0
CIRCLE
  5
815
  8
5
 10
4.330365
 20
8.961032
 30
0.0
 40
0.026673
  0
ARC
  5
816
  8
5
 10
4.318504
 20
8.797339
 30
0.0
 40
0.06
 50
194.999374
 51
270.0
  0
LINE
  5
817
  8
5
 10
4.260548
 20
8.781811
 30
0.0
 11
4.217718
 21
8.941663
 31
0.0
  0
CIRCLE
  5
818
  8
5
 10
4.486994
 20
8.815579
 30
0.0
 40
0.026673
  0
CIRCLE
  5
819
  8
5
 10
4.544365
 20
8.961032
 30
0.0
 40
0.026673
  0
CIRCLE
  5
81A
  8
5
 10
4.437365
 20
8.961032
 30
0.0
 40
0.026673
  0
CIRCLE
  5
81B
  8
5
 10
4.700994
 20
8.815579
 30
0.0
 40
0.026673
  0
CIRCLE
  5
81C
  8
5
 10
4.758365
 20
8.961032
 30
0.0
 40
0.026673
  0
CIRCLE
  5
81D
  8
5
 10
4.651365
 20
8.961032
 30
0.0
 40
0.026673
  0
ARC
  5
81E
  8
5
 10
4.859049
 20
8.957191
 30
0.0
 40
0.06
 50
345.000626
 51
90.0
  0
LINE
  5
81F
  8
5
 10
5.199344
 20
8.67243
 30
0.0
 11
5.199344
 21
9.062112
 31
0.0
  0
TEXT
  5
820
  8
0
 10
4.89037
 20
8.977113
 30
0.0
 40
0.1
  1
5
  7
ROMANS
  0
ARC
  5
821
  8
5
 10
5.159344
 20
8.67243
 30
0.0
 40
0.04
 50
270.0
 51
0.0
  0
LINE
  5
822
  8
5
 10
5.149936
 20
8.940596
 30
0.0
 11
5.046828
 21
8.940596
 31
0.0
  0
LINE
  5
823
  8
5
 10
5.149619
 20
8.793484
 30
0.0
 11
5.046828
 21
8.793484
 31
0.0
  0
ARC
  5
824
  8
5
 10
4.816218
 20
8.797339
 30
0.0
 40
0.06
 50
270.0
 51
345.000626
  0
LINE
  5
825
  8
5
 10
5.008147
 20
8.867271
 30
0.0
 11
5.046828
 21
8.793484
 31
0.0
  0
LINE
  5
826
  8
5
 10
5.046828
 20
8.940596
 30
0.0
 11
5.008147
 21
8.867271
 31
0.0
  0
LINE
  5
827
  8
5
 10
4.874174
 20
8.781811
 30
0.0
 11
4.917005
 21
8.941663
 31
0.0
  0
CIRCLE
  5
828
  8
5
 10
5.098414
 20
8.86752
 30
0.0
 40
0.034
  0
LINE
  5
829
  8
5
 10
5.188199
 20
8.86752
 30
0.0
 11
5.149494
 21
8.940551
 31
0.0
  0
LINE
  5
82A
  8
5
 10
5.149619
 20
8.793484
 30
0.0
 11
5.188199
 21
8.86752
 31
0.0
  0
TEXT
  5
82B
  8
0
 10
4.889036
 20
8.675632
 30
0.0
 40
0.1
  1
9
  7
ROMANS
  0
ARC
  5
82C
  8
5
 10
5.159344
 20
9.062112
 30
0.0
 40
0.04
 50
0.0
 51
90.0
  0
TEXT
  5
82E
  8
0
 10
8.611829
 20
3.323688
 30
0.0
 40
0.1
  1

  7
ROMANS
  0
TEXT
  5
832
  8
0
 10
9.03036
 20
4.575062
 30
0.0
 40
0.1
  1
 
  7
ROMANS
  0
TEXT
  5
834
  8
3
 10
7.913227
 20
7.597068
 30
0.0
 40
0.08
  1
Typ UMK-SE 11.25-1
 50
90.0
  7
ROMANS
  0
LINE
  5
8A5
  8
3
 10
7.997203
 20
9.032561
 30
0.0
 11
7.77258
 21
9.032561
 31
0.0
  0
LINE
  5
8A6
  8
3
 10
7.067658
 20
6.917968
 30
0.0
 11
7.641106
 21
6.917968
 31
0.0
  0
LINE
  5
8A7
  8
3
 10
7.067658
 20
6.772485
 30
0.0
 11
7.067658
 21
6.94533
 31
0.0
  0
LINE
  5
8A8
  8
3
 10
6.99834
 20
6.772485
 30
0.0
 11
7.067658
 21
6.772485
 31
0.0
  0
LINE
  5
8A9
  8
3
 10
6.861218
 20
7.256754
 30
0.0
 11
6.861218
 21
7.334758
 31
0.0
  0
LINE
  5
8AA
  8
3
 10
6.498921
 20
7.256754
 30
0.0
 11
6.861218
 21
7.256754
 31
0.0
  0
LINE
  5
8AB
  8
3
 10
6.587231
 20
7.052929
 30
0.0
 11
6.499006
 21
7.052929
 31
0.0
  0
LINE
  5
8AC
  8
3
 10
7.087142
 20
6.567244
 30
0.0
 11
6.998917
 21
6.567244
 31
0.0
  0
LINE
  5
8AD
  8
3
 10
7.061781
 20
6.945117
 30
0.0
 11
6.7518
 21
6.945117
 31
0.0
  0
LINE
  5
8AE
  8
3
 10
6.7518
 20
6.945117
 30
0.0
 11
6.7518
 21
6.964594
 31
0.0
  0
LINE
  5
8AF
  8
3
 10
6.498921
 20
7.052242
 30
0.0
 11
6.498921
 21
7.256754
 31
0.0
  0
LINE
  5
8B0
  8
3
 10
6.861047
 20
7.334663
 30
0.0
 11
7.624694
 21
7.334663
 31
0.0
  0
LINE
  5
8B1
  8
3
 10
6.7518
 20
6.964594
 30
0.0
 11
6.588102
 21
7.052639
 31
0.0
  0
LINE
  5
8B2
  8
3
 10
7.238673
 20
6.959847
 30
0.0
 11
7.637352
 21
6.959847
 31
0.0
  0
LINE
  5
8B3
  8
3
 10
7.238673
 20
6.981529
 30
0.0
 11
7.238673
 21
6.959847
 31
0.0
  0
LINE
  5
8B4
  8
3
 10
7.637352
 20
6.981529
 30
0.0
 11
7.238673
 21
6.981529
 31
0.0
  0
LINE
  5
8B5
  8
3
 10
8.462792
 20
7.03969
 30
0.0
 11
8.462792
 21
7.104195
 31
0.0
  0
LINE
  5
8B6
  8
3
 10
8.507178
 20
7.03969
 30
0.0
 11
8.507178
 21
7.103605
 31
0.0
  0
LINE
  5
8B7
  8
3
 10
8.574867
 20
8.159451
 30
0.0
 11
8.574867
 21
8.215961
 31
0.0
  0
LINE
  5
8B8
  8
3
 10
8.624983
 20
8.159451
 30
0.0
 11
8.624983
 21
8.236199
 31
0.0
  0
LINE
  5
8B9
  8
3
 10
8.462831
 20
8.329033
 30
0.0
 11
8.462831
 21
8.460313
 31
0.0
  0
LINE
  5
8BA
  8
3
 10
7.638561
 20
6.382109
 30
0.0
 11
7.638561
 21
6.382323
 31
0.0
  0
LINE
  5
8BB
  8
3
 10
7.638685
 20
6.552473
 30
0.0
 11
7.240006
 21
6.552473
 31
0.0
  0
LINE
  5
8BC
  8
3
 10
7.240006
 20
6.552473
 30
0.0
 11
7.240006
 21
6.530792
 31
0.0
  0
LINE
  5
8BD
  8
3
 10
7.240006
 20
6.530792
 30
0.0
 11
7.638685
 21
6.530792
 31
0.0
  0
ARC
  5
8BE
  8
3
 10
7.997035
 20
6.554139
 30
0.0
 40
0.02
 50
270.0
 51
0.0
  0
ARC
  5
8BF
  8
3
 10
7.771883
 20
6.554139
 30
0.0
 40
0.02
 50
180.0
 51
270.0
  0
ARC
  5
8C0
  8
3
 10
7.997035
 20
9.012562
 30
0.0
 40
0.02
 50
0.0
 51
89.516618
  0
ARC
  5
8C1
  8
3
 10
7.771883
 20
9.012483
 30
0.0
 40
0.02
 50
89.516618
 51
180.0
  0
LINE
  5
8C2
  8
3
 10
8.312919
 20
7.214944
 30
0.0
 11
8.376221
 21
7.253026
 31
0.0
  0
LINE
  5
8C3
  8
3
 10
8.348625
 20
7.014165
 30
0.0
 11
8.606177
 21
7.014165
 31
0.0
  0
ARC
  5
8C4
  8
3
 10
8.442831
 20
8.329033
 30
0.0
 40
0.02
 50
359.75036
 51
0.0
  0
ARC
  5
8C5
  8
3
 10
8.487805
 20
8.142742
 30
0.0
 40
0.171621
 50
103.671727
 51
176.711337
  0
LINE
  5
8C6
  8
3
 10
8.574867
 20
8.159451
 30
0.0
 11
8.624983
 21
8.159451
 31
0.0
  0
LINE
  5
8C7
  8
3
 10
8.657673
 20
8.236315
 30
0.0
 11
8.625173
 21
8.236315
 31
0.0
  0
LINE
  5
8C8
  8
3
 10
8.332355
 20
7.636953
 30
0.0
 11
8.472254
 21
7.636953
 31
0.0
  0
LINE
  5
8C9
  8
3
 10
8.512649
 20
8.143302
 30
0.0
 11
8.551078
 21
8.143302
 31
0.0
  0
LINE
  5
8CA
  8
3
 10
8.316877
 20
8.151942
 30
0.0
 11
8.384033
 21
8.151942
 31
0.0
  0
LINE
  5
8CB
  8
3
 10
8.384033
 20
8.151942
 30
0.0
 11
8.574274
 21
8.215901
 31
0.0
  0
LINE
  5
8CC
  8
3
 10
8.312898
 20
7.200194
 30
0.0
 11
8.312898
 21
7.214901
 31
0.0
  0
LINE
  5
8CD
  8
3
 10
8.497583
 20
7.498643
 30
0.0
 11
8.601052
 21
7.517443
 31
0.0
  0
ARC
  5
8CE
  8
3
 10
8.496362
 20
7.564611
 30
0.0
 40
0.066246
 50
204.031088
 51
270.864494
  0
LINE
  5
8CF
  8
3
 10
8.498628
 20
6.29767
 30
0.0
 11
8.498628
 21
6.243266
 31
0.0
  0
LINE
  5
8D0
  8
3
 10
8.680155
 20
6.243266
 30
0.0
 11
8.680155
 21
7.03034
 31
0.0
  0
LINE
  5
8D1
  8
3
 10
8.518628
 20
6.223266
 30
0.0
 11
8.660155
 21
6.223266
 31
0.0
  0
LINE
  5
8D2
  8
3
 10
8.635918
 20
6.496248
 30
0.0
 11
8.635918
 21
6.291247
 31
0.0
  0
LINE
  5
8D3
  8
3
 10
8.635918
 20
6.294922
 30
0.0
 11
8.522499
 21
6.317292
 31
0.0
  0
LINE
  5
8D4
  8
3
 10
8.243507
 20
6.536248
 30
0.0
 11
8.243507
 21
7.266248
 31
0.0
  0
LINE
  5
8D5
  8
3
 10
8.26354
 20
6.516248
 30
0.0
 11
8.615918
 21
6.516248
 31
0.0
  0
LINE
  5
8D6
  8
3
 10
8.598062
 20
6.562181
 30
0.0
 11
8.564967
 21
6.562181
 31
0.0
  0
LINE
  5
8D7
  8
3
 10
8.452814
 20
6.562181
 30
0.0
 11
8.517164
 21
6.562181
 31
0.0
  0
ARC
  5
8D8
  8
3
 10
8.539227
 20
6.562181
 30
0.0
 40
0.022063
 50
0.0
 51
180.0
  0
LINE
  5
8D9
  8
3
 10
8.606177
 20
7.014165
 30
0.0
 11
8.658735
 21
7.001304
 31
0.0
  0
ARC
  5
8DA
  8
3
 10
8.322442
 20
7.006657
 30
0.0
 40
0.027224
 50
16.020563
 51
249.890672
  0
LINE
  5
8DB
  8
3
 10
8.313082
 20
6.981093
 30
0.0
 11
8.313082
 21
6.600765
 31
0.0
  0
LINE
  5
8DC
  8
3
 10
8.346177
 20
6.562181
 30
0.0
 11
8.40685
 21
6.562181
 31
0.0
  0
ARC
  5
8DD
  8
3
 10
8.322275
 20
6.575042
 30
0.0
 40
0.027142
 50
109.666103
 51
331.71542
  0
ARC
  5
8DE
  8
3
 10
8.429764
 20
6.557862
 30
0.0
 40
0.026113
 50
8.049039
 51
172.938001
  0
LINE
  5
8DF
  8
3
 10
8.637298
 20
6.969439
 30
0.0
 11
8.637298
 21
6.574439
 31
0.0
  0
ARC
  5
8E0
  8
3
 10
8.62252
 20
6.556364
 30
0.0
 40
0.023108
 50
168.990156
 51
50.243342
  0
ARC
  5
8E1
  8
3
 10
8.263451
 20
6.536248
 30
0.0
 40
0.02
 50
180.0
 51
270.0
  0
ARC
  5
8E2
  8
3
 10
8.615918
 20
6.496248
 30
0.0
 40
0.02
 50
0.0
 51
90.0
  0
ARC
  5
8E3
  8
3
 10
8.660155
 20
7.03034
 30
0.0
 40
0.02
 50
0.0
 51
79.386356
  0
LINE
  5
8E4
  8
3
 10
8.31304
 20
7.08832
 30
0.0
 11
8.31304
 21
7.201231
 31
0.0
  0
ARC
  5
8E5
  8
3
 10
8.33304
 20
7.088626
 30
0.0
 40
0.02
 50
180.0
 51
270.0
  0
ARC
  5
8E6
  8
3
 10
8.518628
 20
6.243266
 30
0.0
 40
0.02
 50
180.0
 51
270.0
  0
ARC
  5
8E7
  8
3
 10
8.518628
 20
6.29767
 30
0.0
 40
0.02
 50
78.84248
 51
180.0
  0
ARC
  5
8E8
  8
3
 10
8.660155
 20
6.243266
 30
0.0
 40
0.02
 50
270.0
 51
0.0
  0
LINE
  5
8E9
  8
3
 10
8.243862
 20
7.265654
 30
0.0
 11
8.304484
 21
7.300654
 31
0.0
  0
LINE
  5
8EA
  8
3
 10
8.304484
 20
7.300654
 30
0.0
 11
8.304484
 21
7.400654
 31
0.0
  0
LINE
  5
8EB
  8
3
 10
8.304484
 20
7.400654
 30
0.0
 11
8.243862
 21
7.435654
 31
0.0
  0
LINE
  5
8EC
  8
3
 10
8.243862
 20
7.435654
 30
0.0
 11
8.243862
 21
8.585044
 31
0.0
  0
LINE
  5
8ED
  8
3
 10
8.376221
 20
7.253026
 30
0.0
 11
8.376221
 21
7.453357
 31
0.0
  0
LINE
  5
8EE
  8
3
 10
8.376221
 20
7.453357
 30
0.0
 11
8.312183
 21
7.483321
 31
0.0
  0
LINE
  5
8EF
  8
3
 10
8.312183
 20
7.483321
 30
0.0
 11
8.312183
 21
7.582277
 31
0.0
  0
LINE
  5
8F0
  8
3
 10
8.354803
 20
7.581346
 30
0.0
 11
8.354803
 21
7.556346
 31
0.0
  0
LINE
  5
8F1
  8
3
 10
8.364803
 20
7.546346
 30
0.0
 11
8.425877
 21
7.546346
 31
0.0
  0
LINE
  5
8F2
  8
3
 10
8.606671
 20
7.576811
 30
0.0
 11
8.562164
 21
7.590753
 31
0.0
  0
LINE
  5
8F3
  8
3
 10
8.54931
 20
7.582855
 30
0.0
 11
8.546917
 21
7.568504
 31
0.0
  0
LINE
  5
8F4
  8
3
 10
8.546917
 20
7.568504
 30
0.0
 11
8.512649
 21
7.568504
 31
0.0
  0
LINE
  5
8F5
  8
3
 10
8.512649
 20
7.568504
 30
0.0
 11
8.512649
 21
7.598158
 31
0.0
  0
LINE
  5
8F6
  8
3
 10
8.312183
 20
7.656952
 30
0.0
 11
8.312183
 21
7.685054
 31
0.0
  0
LINE
  5
8F7
  8
3
 10
8.332183
 20
7.705054
 30
0.0
 11
8.417183
 21
7.705054
 31
0.0
  0
LINE
  5
8F8
  8
3
 10
8.437183
 20
7.725054
 30
0.0
 11
8.437183
 21
8.050153
 31
0.0
  0
LINE
  5
8F9
  8
3
 10
8.449903
 20
8.068781
 30
0.0
 11
8.512649
 21
8.093302
 31
0.0
  0
LINE
  5
8FA
  8
3
 10
8.512649
 20
8.093302
 30
0.0
 11
8.512649
 21
8.143302
 31
0.0
  0
LINE
  5
8FB
  8
3
 10
8.5512
 20
8.143336
 30
0.0
 11
8.5512
 21
8.11848
 31
0.0
  0
LINE
  5
8FC
  8
3
 10
8.575726
 20
8.098999
 30
0.0
 11
8.663801
 21
8.119457
 31
0.0
  0
LINE
  5
8FD
  8
3
 10
8.679276
 20
8.138938
 30
0.0
 11
8.679276
 21
8.216379
 31
0.0
  0
LINE
  5
8FE
  8
3
 10
8.384788
 20
8.017197
 30
0.0
 11
8.384788
 21
7.80736
 31
0.0
  0
LINE
  5
8FF
  8
3
 10
8.312183
 20
7.972221
 30
0.0
 11
8.312183
 21
7.803079
 31
0.0
  0
LINE
  5
900
  8
3
 10
8.263862
 20
8.605044
 30
0.0
 11
8.510403
 21
8.605044
 31
0.0
  0
LINE
  5
901
  8
3
 10
8.572403
 20
8.543044
 30
0.0
 11
8.572403
 21
8.474463
 31
0.0
  0
LINE
  5
902
  8
3
 10
8.532403
 20
8.434463
 30
0.0
 11
8.50858
 21
8.434463
 31
0.0
  0
LINE
  5
903
  8
3
 10
8.50858
 20
8.434463
 30
0.0
 11
8.50858
 21
8.459932
 31
0.0
  0
LINE
  5
904
  8
3
 10
8.50858
 20
8.459932
 30
0.0
 11
8.462826
 21
8.459932
 31
0.0
  0
LINE
  5
905
  8
3
 10
8.322183
 20
8.532488
 30
0.0
 11
8.38314
 21
8.532488
 31
0.0
  0
LINE
  5
906
  8
3
 10
8.39314
 20
8.522488
 30
0.0
 11
8.39314
 21
8.339476
 31
0.0
  0
LINE
  5
907
  8
3
 10
8.386164
 20
8.329944
 30
0.0
 11
8.325207
 21
8.310606
 31
0.0
  0
LINE
  5
908
  8
3
 10
8.312183
 20
8.320138
 30
0.0
 11
8.312183
 21
8.522488
 31
0.0
  0
ARC
  5
909
  8
3
 10
8.263862
 20
8.585044
 30
0.0
 40
0.02
 50
90.0
 51
180.0
  0
ARC
  5
90A
  8
3
 10
8.659276
 20
8.138938
 30
0.0
 40
0.02
 50
283.077007
 51
0.0
  0
ARC
  5
90B
  8
3
 10
8.457183
 20
8.050153
 30
0.0
 40
0.02
 50
111.34541
 51
180.0
  0
ARC
  5
90C
  8
3
 10
8.659276
 20
8.216379
 30
0.0
 40
0.02
 50
0.0
 51
94.597366
  0
ARC
  5
90D
  8
3
 10
8.5712
 20
8.11848
 30
0.0
 40
0.02
 50
180.0
 51
283.077007
  0
ARC
  5
90E
  8
3
 10
8.38314
 20
8.522488
 30
0.0
 40
0.01
 50
0.0
 51
90.0
  0
ARC
  5
90F
  8
3
 10
8.322183
 20
8.522488
 30
0.0
 40
0.01
 50
90.0
 51
180.0
  0
ARC
  5
910
  8
3
 10
8.38314
 20
8.339476
 30
0.0
 40
0.01
 50
287.601404
 51
0.0
  0
ARC
  5
911
  8
3
 10
8.322183
 20
8.320138
 30
0.0
 40
0.01
 50
180.0
 51
287.601404
  0
ARC
  5
912
  8
3
 10
8.510403
 20
8.543044
 30
0.0
 40
0.062
 50
0.0
 51
90.0
  0
ARC
  5
913
  8
3
 10
8.532403
 20
8.474463
 30
0.0
 40
0.04
 50
270.0
 51
360.0
  0
ARC
  5
914
  8
3
 10
8.442831
 20
8.329033
 30
0.0
 40
0.02
 50
282.679357
 51
358.581974
  0
ARC
  5
915
  8
3
 10
8.348513
 20
7.808101
 30
0.0
 40
0.036398
 50
183.457383
 51
358.242973
  0
ARC
  5
916
  8
3
 10
8.417183
 20
7.725054
 30
0.0
 40
0.02
 50
270.0
 51
360.0
  0
ARC
  5
917
  8
3
 10
8.332183
 20
7.685054
 30
0.0
 40
0.02
 50
90.0
 51
180.0
  0
ARC
  5
918
  8
3
 10
8.332183
 20
7.656952
 30
0.0
 40
0.02
 50
180.0
 51
270.492999
  0
ARC
  5
919
  8
3
 10
8.473614
 20
7.597985
 30
0.0
 40
0.039036
 50
0.254761
 51
91.921604
  0
ARC
  5
91A
  8
3
 10
8.333543
 20
7.581173
 30
0.0
 40
0.021293
 50
0.935315
 51
178.147003
  0
ARC
  5
91B
  8
3
 10
8.425877
 20
7.536346
 30
0.0
 40
0.01
 50
7.919888
 51
90.0
  0
ARC
  5
91C
  8
3
 10
8.364803
 20
7.556346
 30
0.0
 40
0.01
 50
180.0
 51
270.0
  0
ARC
  5
91D
  8
3
 10
8.559174
 20
7.58121
 30
0.0
 40
0.01
 50
72.605914
 51
170.531391
  0
ARC
  5
91E
  8
3
 10
8.54144
 20
7.571695
 30
0.0
 40
0.080663
 50
317.811823
 51
344.351555
  0
ARC
  5
91F
  8
3
 10
8.600692
 20
7.557725
 30
0.0
 40
0.02
 50
337.084669
 51
72.605914
  0
LINE
  5
920
  8
3
 10
8.312051
 20
7.96871
 30
0.0
 11
8.312051
 21
8.017606
 31
0.0
  0
LINE
  5
921
  8
3
 10
8.312051
 20
8.017606
 30
0.0
 11
8.384166
 21
8.017606
 31
0.0
  0
LINE
  5
922
  8
3
 10
8.552478
 20
7.088798
 30
0.0
 11
8.663838
 21
7.049998
 31
0.0
  0
LINE
  5
923
  8
3
 10
8.507178
 20
7.03969
 30
0.0
 11
8.462792
 21
7.03969
 31
0.0
  0
LINE
  5
924
  8
3
 10
8.552478
 20
7.088798
 30
0.0
 11
8.507178
 21
7.103585
 31
0.0
  0
LINE
  5
925
  8
3
 10
8.463069
 20
7.104105
 30
0.0
 11
8.398596
 21
7.068639
 31
0.0
  0
LINE
  5
926
  8
3
 10
8.332642
 20
7.068635
 30
0.0
 11
8.398599
 21
7.068635
 31
0.0
  0
ARC
  5
927
  8
3
 10
8.642995
 20
6.988356
 30
0.0
 40
0.019842
 50
253.130841
 51
41.614295
  0
LINE
  5
928
  8
3
 10
7.238461
 20
6.480325
 30
0.0
 11
7.087142
 21
6.567244
 31
0.0
  0
LINE
  5
929
  8
3
 10
6.99834
 20
6.567973
 30
0.0
 11
6.99834
 21
6.772485
 31
0.0
  0
LINE
  5
92A
  8
3
 10
7.238461
 20
6.460847
 30
0.0
 11
7.238461
 21
6.480325
 31
0.0
  0
LINE
  5
92B
  8
3
 10
7.637235
 20
6.460847
 30
0.0
 11
7.238461
 21
6.460847
 31
0.0
  0
LINE
  5
92C
  8
3
 10
7.638561
 20
6.35176
 30
0.0
 11
7.638561
 21
9.207282
 31
0.0
  0
LINE
  5
92D
  8
3
 10
8.034345
 20
6.257722
 30
0.0
 11
8.236104
 21
6.511202
 31
0.0
  0
ARC
  5
92E
  8
3
 10
8.018657
 20
6.270127
 30
0.0
 40
0.02
 50
270.0
 51
321.665009
  0
ARC
  5
92F
  8
3
 10
7.838695
 20
6.270127
 30
0.0
 40
0.02
 50
195.26496
 51
270.0
  0
ARC
  5
930
  8
3
 10
7.658561
 20
6.35176
 30
0.0
 40
0.02
 50
180.0
 51
250.358449
  0
LINE
  5
931
  8
3
 10
7.816903
 20
6.274012
 30
0.0
 11
7.651838
 21
6.332924
 31
0.0
  0
LINE
  5
932
  8
3
 10
7.8194
 20
6.264661
 30
0.0
 11
7.816903
 21
6.273812
 31
0.0
  0
LINE
  5
933
  8
3
 10
8.018657
 20
6.250127
 30
0.0
 11
7.838695
 21
6.250127
 31
0.0
  0
LINE
  5
934
  8
3
 10
8.017035
 20
9.012562
 30
0.0
 11
8.017035
 21
6.554139
 31
0.0
  0
LINE
  5
935
  8
3
 10
8.236098
 20
9.039224
 30
0.0
 11
8.236098
 21
6.511255
 31
0.0
  0
LINE
  5
936
  8
3
 10
8.034345
 20
9.30132
 30
0.0
 11
8.231786
 21
9.05163
 31
0.0
  0
LINE
  5
937
  8
3
 10
8.018657
 20
9.308915
 30
0.0
 11
7.838695
 21
9.308915
 31
0.0
  0
LINE
  5
938
  8
3
 10
7.8194
 20
9.294181
 30
0.0
 11
7.816903
 21
9.28503
 31
0.0
  0
LINE
  5
939
  8
3
 10
7.816903
 20
9.28503
 30
0.0
 11
7.651838
 21
9.226118
 31
0.0
  0
CIRCLE
  5
93A
  8
3
 10
8.129627
 20
7.397126
 30
0.0
 40
0.058
  0
CIRCLE
  5
93B
  8
3
 10
8.129627
 20
6.646314
 30
0.0
 40
0.058
  0
CIRCLE
  5
93C
  8
3
 10
7.882042
 20
6.337997
 30
0.0
 40
0.058
  0
ARC
  5
93D
  8
3
 10
7.838695
 20
9.288915
 30
0.0
 40
0.02
 50
90.0
 51
164.73504
  0
ARC
  5
93E
  8
3
 10
8.018657
 20
9.288915
 30
0.0
 40
0.02
 50
38.334991
 51
90.0
  0
LINE
  5
93F
  8
3
 10
7.751883
 20
7.784139
 30
0.0
 11
7.751883
 21
9.012483
 31
0.0
  0
LINE
  5
940
  8
3
 10
7.751883
 20
7.784139
 30
0.0
 11
7.751883
 21
6.554139
 31
0.0
  0
LINE
  5
941
  8
3
 10
7.771883
 20
6.534139
 30
0.0
 11
7.997035
 21
6.534139
 31
0.0
  0
ARC
  5
942
  8
5
 10
7.4704
 20
8.733481
 30
0.0
 40
0.01
 50
270.0
 51
0.0
  0
ARC
  5
943
  8
5
 10
7.4704
 20
8.900932
 30
0.0
 40
0.01
 50
0.0
 51
90.0
  0
ARC
  5
944
  8
5
 10
7.365612
 20
8.864069
 30
0.0
 40
0.114806
 50
335.908754
 51
24.091246
  0
ARC
  5
945
  8
5
 10
7.365578
 20
8.770344
 30
0.0
 40
0.114806
 50
335.908754
 51
24.091246
  0
ARC
  5
946
  8
5
 10
7.302798
 20
8.900932
 30
0.0
 40
0.01
 50
90.0
 51
180.0
  0
ARC
  5
947
  8
5
 10
7.302798
 20
8.733481
 30
0.0
 40
0.01
 50
180.0
 51
270.0
  0
ARC
  5
948
  8
5
 10
7.407604
 20
8.864069
 30
0.0
 40
0.114806
 50
155.908754
 51
204.091246
  0
ARC
  5
949
  8
5
 10
7.407604
 20
8.770344
 30
0.0
 40
0.114806
 50
155.908754
 51
204.091246
  0
LINE
  5
94A
  8
5
 10
7.292798
 20
8.817207
 30
0.0
 11
7.292798
 21
8.900932
 31
0.0
  0
LINE
  5
94B
  8
5
 10
7.4804
 20
8.820003
 30
0.0
 11
7.5069
 21
8.812301
 31
0.0
  0
LINE
  5
94C
  8
5
 10
7.4804
 20
8.922232
 30
0.0
 11
7.4804
 21
8.71237
 31
0.0
  0
ARC
  5
94D
  8
5
 10
7.3189
 20
8.683198
 30
0.0
 40
0.02
 50
180.0
 51
270.0
  0
ARC
  5
94E
  8
5
 10
7.3189
 20
8.953198
 30
0.0
 40
0.02
 50
90.0
 51
180.0
  0
ARC
  5
94F
  8
5
 10
7.4969
 20
8.993198
 30
0.0
 40
0.02
 50
270.0
 51
0.0
  0
ARC
  5
950
  8
5
 10
7.4969
 20
8.643198
 30
0.0
 40
0.02
 50
0.0
 51
90.0
  0
LINE
  5
951
  8
5
 10
7.5569
 20
8.763198
 30
0.0
 11
7.638561
 21
8.763198
 31
0.0
  0
LINE
  5
952
  8
5
 10
7.5569
 20
8.873198
 30
0.0
 11
7.638561
 21
8.873198
 31
0.0
  0
LINE
  5
953
  8
5
 10
7.5069
 20
8.728198
 30
0.0
 11
7.5169
 21
8.728198
 31
0.0
  0
LINE
  5
954
  8
5
 10
7.5069
 20
8.908198
 30
0.0
 11
7.5169
 21
8.908198
 31
0.0
  0
LINE
  5
955
  8
5
 10
7.5569
 20
8.724698
 30
0.0
 11
7.638561
 21
8.724698
 31
0.0
  0
LINE
  5
956
  8
5
 10
7.5569
 20
8.911698
 30
0.0
 11
7.638561
 21
8.911698
 31
0.0
  0
LINE
  5
957
  8
5
 10
7.638561
 20
8.603198
 30
0.0
 11
7.5569
 21
8.603198
 31
0.0
  0
LINE
  5
958
  8
5
 10
7.5569
 20
9.033198
 30
0.0
 11
7.638561
 21
9.033198
 31
0.0
  0
LINE
  5
959
  8
5
 10
7.5569
 20
8.568198
 30
0.0
 11
7.5169
 21
8.568198
 31
0.0
  0
LINE
  5
95A
  8
5
 10
7.5169
 20
9.068198
 30
0.0
 11
7.5569
 21
9.068198
 31
0.0
  0
LINE
  5
95B
  8
5
 10
7.5569
 20
9.068198
 30
0.0
 11
7.5569
 21
8.568198
 31
0.0
  0
LINE
  5
95C
  8
5
 10
7.4969
 20
8.663198
 30
0.0
 11
7.3189
 21
8.663198
 31
0.0
  0
LINE
  5
95D
  8
5
 10
7.5169
 20
9.068198
 30
0.0
 11
7.5169
 21
8.568198
 31
0.0
  0
LINE
  5
95E
  8
5
 10
7.3189
 20
8.973198
 30
0.0
 11
7.4969
 21
8.973198
 31
0.0
  0
LINE
  5
95F
  8
5
 10
7.2989
 20
8.683198
 30
0.0
 11
7.2989
 21
8.724272
 31
0.0
  0
LINE
  5
960
  8
5
 10
7.4804
 20
8.733481
 30
0.0
 11
7.4804
 21
8.900932
 31
0.0
  0
LINE
  5
961
  8
5
 10
7.4804
 20
8.922232
 30
0.0
 11
7.5069
 21
8.922232
 31
0.0
  0
LINE
  5
962
  8
5
 10
7.5069
 20
8.922232
 30
0.0
 11
7.5069
 21
8.71237
 31
0.0
  0
LINE
  5
963
  8
5
 10
7.5069
 20
8.71237
 30
0.0
 11
7.4804
 21
8.71237
 31
0.0
  0
LINE
  5
964
  8
5
 10
7.4704
 20
8.723481
 30
0.0
 11
7.302798
 21
8.723481
 31
0.0
  0
LINE
  5
965
  8
5
 10
7.292798
 20
8.733481
 30
0.0
 11
7.292798
 21
8.817207
 31
0.0
  0
LINE
  5
966
  8
5
 10
7.302798
 20
8.910932
 30
0.0
 11
7.4704
 21
8.910932
 31
0.0
  0
LINE
  5
967
  8
5
 10
7.292798
 20
8.817207
 30
0.0
 11
7.48083
 21
8.817207
 31
0.0
  0
LINE
  5
968
  8
5
 10
7.2989
 20
8.910141
 30
0.0
 11
7.2989
 21
8.953198
 31
0.0
  0
LINE
  5
A0F
  8
3
 10
3.67252
 20
3.351646
 30
0.0
 11
5.441601
 21
3.351646
 31
0.0
  0
LINE
  5
A10
  8
3
 10
5.441601
 20
3.954123
 30
0.0
 11
3.67252
 21
3.954123
 31
0.0
  0
LINE
  5
A11
  8
3
 10
4.105389
 20
4.366323
 30
0.0
 11
5.105389
 21
4.366323
 31
0.0
  0
LINE
  5
A12
  8
3
 10
4.028951
 20
4.557621
 30
0.0
 11
5.105389
 21
4.557621
 31
0.0
  0
LINE
  5
A13
  8
3
 10
4.105389
 20
4.613396
 30
0.0
 11
5.105389
 21
4.613396
 31
0.0
  0
LINE
  5
A14
  8
3
 10
4.134394
 20
6.833972
 30
0.0
 11
4.284665
 21
6.833972
 31
0.0
  0
LINE
  5
A15
  8
3
 10
3.669601
 20
6.249178
 30
0.0
 11
5.439501
 21
6.249178
 31
0.0
  0
LINE
  5
A16
  8
3
 10
4.005987
 20
6.891895
 30
0.0
 11
4.005987
 21
7.321943
 31
0.0
  0
LINE
  5
A17
  8
3
 10
4.105987
 20
6.450908
 30
0.0
 11
4.105987
 21
6.890647
 31
0.0
  0
LINE
  5
A18
  8
3
 10
4.160621
 20
7.283172
 30
0.0
 11
4.160621
 21
7.322189
 31
0.0
  0
LINE
  5
A19
  8
3
 10
4.05855
 20
7.322189
 30
0.0
 11
4.05855
 21
7.283172
 31
0.0
  0
LINE
  5
A1A
  8
3
 10
4.134394
 20
6.779554
 30
0.0
 11
4.134394
 21
6.833972
 31
0.0
  0
LINE
  5
A1B
  8
3
 10
4.05855
 20
7.283172
 30
0.0
 11
4.160621
 21
7.283172
 31
0.0
  0
LINE
  5
A1C
  8
3
 10
4.633189
 20
3.055597
 30
0.0
 11
5.413236
 21
3.055597
 31
0.0
  0
LINE
  5
A1D
  8
3
 10
4.633189
 20
2.908959
 30
0.0
 11
5.413236
 21
2.908959
 31
0.0
  0
LINE
  5
A1E
  8
3
 10
4.633348
 20
2.908959
 30
0.0
 11
4.633348
 21
3.351549
 31
0.0
  0
LINE
  5
A1F
  8
3
 10
5.413236
 20
2.908959
 30
0.0
 11
5.413236
 21
3.351549
 31
0.0
  0
LINE
  5
A20
  8
3
 10
4.005389
 20
5.111486
 30
0.0
 11
5.005389
 21
5.111486
 31
0.0
  0
LINE
  5
A21
  8
3
 10
4.005389
 20
5.053265
 30
0.0
 11
5.005389
 21
5.053265
 31
0.0
  0
LINE
  5
A22
  8
3
 10
4.005389
 20
4.857075
 30
0.0
 11
5.005389
 21
4.857075
 31
0.0
  0
LINE
  5
A23
  8
3
 10
5.439501
 20
6.249178
 30
0.0
 11
5.439501
 21
9.279178
 31
0.0
  0
LINE
  5
A24
  8
3
 10
5.103114
 20
6.891895
 30
0.0
 11
5.103114
 21
6.450908
 31
0.0
  0
LINE
  5
A25
  8
3
 10
4.704213
 20
6.889189
 30
0.0
 11
4.704213
 21
6.450908
 31
0.0
  0
LINE
  5
A26
  8
3
 10
4.105987
 20
6.553467
 30
0.0
 11
5.100226
 21
6.553467
 31
0.0
  0
LINE
  5
A27
  8
3
 10
4.105987
 20
6.450908
 30
0.0
 11
5.103114
 21
6.450908
 31
0.0
  0
LINE
  5
A28
  8
3
 10
4.105987
 20
6.778998
 30
0.0
 11
5.100226
 21
6.778998
 31
0.0
  0
LINE
  5
A29
  8
3
 10
4.932035
 20
6.833972
 30
0.0
 11
5.082306
 21
6.833972
 31
0.0
  0
LINE
  5
A2A
  8
3
 10
5.003114
 20
7.321943
 30
0.0
 11
5.003114
 21
6.894462
 31
0.0
  0
LINE
  5
A2B
  8
3
 10
4.856191
 20
7.322189
 30
0.0
 11
4.856191
 21
7.283172
 31
0.0
  0
LINE
  5
A2C
  8
3
 10
4.958262
 20
7.283172
 30
0.0
 11
4.958262
 21
7.322189
 31
0.0
  0
LINE
  5
A2D
  8
3
 10
4.656191
 20
7.322189
 30
0.0
 11
4.656191
 21
7.283172
 31
0.0
  0
LINE
  5
A2E
  8
3
 10
4.758262
 20
7.283172
 30
0.0
 11
4.758262
 21
7.322189
 31
0.0
  0
LINE
  5
A2F
  8
3
 10
4.456191
 20
7.322189
 30
0.0
 11
4.456191
 21
7.283172
 31
0.0
  0
LINE
  5
A30
  8
3
 10
4.558262
 20
7.283172
 30
0.0
 11
4.558262
 21
7.322189
 31
0.0
  0
LINE
  5
A31
  8
3
 10
4.604213
 20
7.321943
 30
0.0
 11
4.604213
 21
6.894462
 31
0.0
  0
LINE
  5
A32
  8
3
 10
4.360621
 20
7.283172
 30
0.0
 11
4.360621
 21
7.322189
 31
0.0
  0
LINE
  5
A33
  8
3
 10
4.25855
 20
7.322189
 30
0.0
 11
4.25855
 21
7.283172
 31
0.0
  0
LINE
  5
A34
  8
3
 10
4.005987
 20
6.994454
 30
0.0
 11
5.002985
 21
6.994454
 31
0.0
  0
LINE
  5
A35
  8
3
 10
4.005987
 20
7.219985
 30
0.0
 11
5.002985
 21
7.219985
 31
0.0
  0
LINE
  5
A36
  8
3
 10
4.005987
 20
6.891895
 30
0.0
 11
5.103114
 21
6.891895
 31
0.0
  0
LINE
  5
A37
  8
3
 10
4.532035
 20
6.833972
 30
0.0
 11
4.682306
 21
6.833972
 31
0.0
  0
LINE
  5
A38
  8
3
 10
4.334394
 20
6.833972
 30
0.0
 11
4.484665
 21
6.833972
 31
0.0
  0
LINE
  5
A39
  8
3
 10
4.284665
 20
6.833972
 30
0.0
 11
4.284665
 21
6.779554
 31
0.0
  0
LINE
  5
A3A
  8
3
 10
4.334394
 20
6.779554
 30
0.0
 11
4.334394
 21
6.833972
 31
0.0
  0
LINE
  5
A3B
  8
3
 10
4.532035
 20
6.779554
 30
0.0
 11
4.532035
 21
6.833972
 31
0.0
  0
LINE
  5
A3C
  8
3
 10
4.484665
 20
6.833972
 30
0.0
 11
4.484665
 21
6.779554
 31
0.0
  0
LINE
  5
A3D
  8
3
 10
4.25855
 20
7.283172
 30
0.0
 11
4.360621
 21
7.283172
 31
0.0
  0
LINE
  5
A3E
  8
3
 10
4.456191
 20
7.283172
 30
0.0
 11
4.558262
 21
7.283172
 31
0.0
  0
LINE
  5
A3F
  8
3
 10
4.732035
 20
6.833972
 30
0.0
 11
4.882306
 21
6.833972
 31
0.0
  0
LINE
  5
A40
  8
3
 10
4.732035
 20
6.779554
 30
0.0
 11
4.732035
 21
6.833972
 31
0.0
  0
LINE
  5
A41
  8
3
 10
4.682306
 20
6.833972
 30
0.0
 11
4.682306
 21
6.779554
 31
0.0
  0
LINE
  5
A42
  8
3
 10
5.003114
 20
6.894462
 30
0.0
 11
5.003114
 21
6.891895
 31
0.0
  0
LINE
  5
A43
  8
3
 10
4.932035
 20
6.779554
 30
0.0
 11
4.932035
 21
6.833972
 31
0.0
  0
LINE
  5
A44
  8
3
 10
4.882306
 20
6.833972
 30
0.0
 11
4.882306
 21
6.779554
 31
0.0
  0
LINE
  5
A45
  8
3
 10
4.656191
 20
7.283172
 30
0.0
 11
4.758262
 21
7.283172
 31
0.0
  0
LINE
  5
A46
  8
3
 10
4.856191
 20
7.283172
 30
0.0
 11
4.958262
 21
7.283172
 31
0.0
  0
LINE
  5
A47
  8
3
 10
4.005987
 20
7.321943
 30
0.0
 11
5.003114
 21
7.321943
 31
0.0
  0
LINE
  5
A48
  8
3
 10
5.082306
 20
6.833972
 30
0.0
 11
5.082306
 21
6.779554
 31
0.0
  0
CIRCLE
  5
A52
  8
0
 10
4.097896
 20
7.091154
 30
0.0
 40
0.06629
  0
CIRCLE
  5
A53
  8
3
 10
4.098337
 20
7.091771
 30
0.0
 40
0.075
  0
LINE
  5
A54
  8
0
 10
4.042093
 20
7.055371
 30
0.0
 11
4.137477
 21
7.144331
 31
0.0
  0
LINE
  5
A55
  8
0
 10
4.057734
 20
7.038415
 30
0.0
 11
4.153302
 21
7.127548
 31
0.0
  0
LINE
  5
A56
  8
0
 10
4.142093
 20
6.614384
 30
0.0
 11
4.237477
 21
6.703344
 31
0.0
  0
LINE
  5
A57
  8
0
 10
4.157734
 20
6.597428
 30
0.0
 11
4.253302
 21
6.686561
 31
0.0
  0
CIRCLE
  5
A58
  8
0
 10
4.197896
 20
6.650167
 30
0.0
 40
0.06629
  0
CIRCLE
  5
A59
  8
3
 10
4.198337
 20
6.650784
 30
0.0
 40
0.075
  0
CIRCLE
  5
A5A
  8
0
 10
4.297496
 20
7.091154
 30
0.0
 40
0.06629
  0
CIRCLE
  5
A5B
  8
3
 10
4.297937
 20
7.091771
 30
0.0
 40
0.075
  0
LINE
  5
A5C
  8
0
 10
4.241693
 20
7.055371
 30
0.0
 11
4.337077
 21
7.144331
 31
0.0
  0
LINE
  5
A5D
  8
0
 10
4.257334
 20
7.038415
 30
0.0
 11
4.352902
 21
7.127548
 31
0.0
  0
LINE
  5
A5E
  8
0
 10
4.341693
 20
6.614384
 30
0.0
 11
4.437077
 21
6.703344
 31
0.0
  0
LINE
  5
A5F
  8
0
 10
4.357334
 20
6.597428
 30
0.0
 11
4.452902
 21
6.686561
 31
0.0
  0
CIRCLE
  5
A60
  8
0
 10
4.397496
 20
6.650167
 30
0.0
 40
0.06629
  0
CIRCLE
  5
A61
  8
3
 10
4.397937
 20
6.650784
 30
0.0
 40
0.075
  0
CIRCLE
  5
A62
  8
0
 10
4.497096
 20
7.091154
 30
0.0
 40
0.06629
  0
CIRCLE
  5
A63
  8
3
 10
4.497537
 20
7.091771
 30
0.0
 40
0.075
  0
LINE
  5
A64
  8
0
 10
4.441293
 20
7.055371
 30
0.0
 11
4.536677
 21
7.144331
 31
0.0
  0
LINE
  5
A65
  8
0
 10
4.456934
 20
7.038415
 30
0.0
 11
4.552502
 21
7.127548
 31
0.0
  0
LINE
  5
A66
  8
0
 10
4.541293
 20
6.614384
 30
0.0
 11
4.636677
 21
6.703344
 31
0.0
  0
LINE
  5
A67
  8
0
 10
4.556934
 20
6.597428
 30
0.0
 11
4.652502
 21
6.686561
 31
0.0
  0
CIRCLE
  5
A68
  8
0
 10
4.597096
 20
6.650167
 30
0.0
 40
0.06629
  0
CIRCLE
  5
A69
  8
3
 10
4.597537
 20
6.650784
 30
0.0
 40
0.075
  0
CIRCLE
  5
A6A
  8
0
 10
4.696696
 20
7.091154
 30
0.0
 40
0.06629
  0
CIRCLE
  5
A6B
  8
3
 10
4.697137
 20
7.091771
 30
0.0
 40
0.075
  0
LINE
  5
A6C
  8
0
 10
4.640893
 20
7.055371
 30
0.0
 11
4.736277
 21
7.144331
 31
0.0
  0
LINE
  5
A6D
  8
0
 10
4.656534
 20
7.038415
 30
0.0
 11
4.752102
 21
7.127548
 31
0.0
  0
LINE
  5
A6E
  8
0
 10
4.740893
 20
6.614384
 30
0.0
 11
4.836277
 21
6.703344
 31
0.0
  0
LINE
  5
A6F
  8
0
 10
4.756534
 20
6.597428
 30
0.0
 11
4.852102
 21
6.686561
 31
0.0
  0
CIRCLE
  5
A70
  8
0
 10
4.796696
 20
6.650167
 30
0.0
 40
0.06629
  0
CIRCLE
  5
A71
  8
3
 10
4.797137
 20
6.650784
 30
0.0
 40
0.075
  0
CIRCLE
  5
A72
  8
0
 10
4.896296
 20
7.091154
 30
0.0
 40
0.06629
  0
CIRCLE
  5
A73
  8
3
 10
4.896737
 20
7.091771
 30
0.0
 40
0.075
  0
LINE
  5
A74
  8
0
 10
4.840493
 20
7.055371
 30
0.0
 11
4.935877
 21
7.144331
 31
0.0
  0
LINE
  5
A75
  8
0
 10
4.856134
 20
7.038415
 30
0.0
 11
4.951702
 21
7.127548
 31
0.0
  0
LINE
  5
A76
  8
0
 10
4.940493
 20
6.614384
 30
0.0
 11
5.035877
 21
6.703344
 31
0.0
  0
LINE
  5
A77
  8
0
 10
4.956134
 20
6.597428
 30
0.0
 11
5.051702
 21
6.686561
 31
0.0
  0
CIRCLE
  5
A78
  8
0
 10
4.996296
 20
6.650167
 30
0.0
 40
0.06629
  0
CIRCLE
  5
A79
  8
3
 10
4.996737
 20
6.650784
 30
0.0
 40
0.075
  0
LINE
  5
A7A
  8
0
 10
4.951111
 20
4.450548
 30
0.0
 11
5.051111
 21
4.450548
 31
0.0
  0
LINE
  5
A7B
  8
0
 10
4.973121
 20
4.425548
 30
0.0
 11
5.029101
 21
4.425548
 31
0.0
  0
LINE
  5
A7C
  8
0
 10
4.99513
 20
4.400548
 30
0.0
 11
5.007091
 21
4.400548
 31
0.0
  0
LINE
  5
A7D
  8
0
 10
5.001111
 20
4.517344
 30
0.0
 11
5.001111
 21
4.450548
 31
0.0
  0
LINE
  5
A7E
  8
3
 10
3.669601
 20
9.279178
 30
0.0
 11
5.439501
 21
9.279178
 31
0.0
  0
LINE
  5
A7F
  8
3
 10
3.669601
 20
6.249178
 30
0.0
 11
3.669601
 21
9.279178
 31
0.0
  0
LINE
  5
A80
  8
3
 10
3.714601
 20
9.152178
 30
0.0
 11
5.394501
 21
9.152178
 31
0.0
  0
LINE
  5
A81
  8
3
 10
3.714601
 20
6.376178
 30
0.0
 11
5.394501
 21
6.376178
 31
0.0
  0
LINE
  5
A82
  8
3
 10
5.339501
 20
6.886178
 30
0.0
 11
5.339501
 21
8.642178
 31
0.0
  0
LINE
  5
A83
  8
3
 10
5.394501
 20
6.376178
 30
0.0
 11
5.394501
 21
6.886178
 31
0.0
  0
LINE
  5
A84
  8
3
 10
5.339501
 20
8.642178
 30
0.0
 11
5.394501
 21
8.642178
 31
0.0
  0
LINE
  5
A85
  8
3
 10
5.339501
 20
6.886178
 30
0.0
 11
5.394501
 21
6.886178
 31
0.0
  0
LINE
  5
A86
  8
3
 10
5.394501
 20
8.642178
 30
0.0
 11
5.394501
 21
9.152178
 31
0.0
  0
LINE
  5
A87
  8
3
 10
3.714601
 20
8.642178
 30
0.0
 11
3.714601
 21
9.152178
 31
0.0
  0
LINE
  5
A88
  8
3
 10
3.769601
 20
8.642178
 30
0.0
 11
3.714601
 21
8.642178
 31
0.0
  0
LINE
  5
A89
  8
3
 10
3.769601
 20
6.881225
 30
0.0
 11
3.769601
 21
8.642178
 31
0.0
  0
LINE
  5
A8A
  8
3
 10
3.769601
 20
6.881225
 30
0.0
 11
3.714601
 21
6.881225
 31
0.0
  0
LINE
  5
A8B
  8
3
 10
3.714601
 20
6.376178
 30
0.0
 11
3.714601
 21
6.881225
 31
0.0
  0
LINE
  5
A8C
  8
3
 10
4.996601
 20
6.249178
 30
0.0
 11
4.996601
 21
6.376178
 31
0.0
  0
LINE
  5
A8D
  8
3
 10
4.112501
 20
6.249178
 30
0.0
 11
4.112501
 21
6.376178
 31
0.0
  0
ARC
  5
A8E
  8
3
 10
7.658561
 20
9.207282
 30
0.0
 40
0.02
 50
109.641551
 51
180.0
  0
ARC
  5
A8F
  8
3
 10
8.216098
 20
9.039224
 30
0.0
 40
0.02
 50
0.0
 51
38.334991
  0
LINE
  5
A90
  8
3
 10
5.441601
 20
3.351646
 30
0.0
 11
5.441601
 21
3.954123
 31
0.0
  0
LINE
  5
A91
  8
3
 10
5.441601
 20
3.759266
 30
0.0
 11
3.67252
 21
3.759266
 31
0.0
  0
LINE
  5
A92
  8
3
 10
5.441601
 20
3.564409
 30
0.0
 11
3.67252
 21
3.564409
 31
0.0
  0
LINE
  5
A93
  8
3
 10
3.700885
 20
2.908959
 30
0.0
 11
3.700885
 21
3.351549
 31
0.0
  0
LINE
  5
A94
  8
3
 10
4.480773
 20
2.908959
 30
0.0
 11
4.480773
 21
3.351549
 31
0.0
  0
LINE
  5
A95
  8
3
 10
4.480932
 20
2.908959
 30
0.0
 11
3.700885
 21
2.908959
 31
0.0
  0
LINE
  5
A96
  8
3
 10
4.480932
 20
3.055597
 30
0.0
 11
3.700885
 21
3.055597
 31
0.0
  0
LINE
  5
A97
  8
3
 10
3.67252
 20
3.351646
 30
0.0
 11
3.67252
 21
3.954123
 31
0.0
  0
LINE
  5
A98
  8
3
 10
4.92878
 20
4.254285
 30
0.0
 11
5.085501
 21
4.254285
 31
0.0
  0
LINE
  5
A99
  8
3
 10
5.085501
 20
4.037057
 30
0.0
 11
4.92878
 21
4.037057
 31
0.0
  0
LINE
  5
A9A
  8
3
 10
4.92878
 20
4.037057
 30
0.0
 11
4.92878
 21
4.254285
 31
0.0
  0
LINE
  5
A9B
  8
3
 10
5.046996
 20
4.206338
 30
0.0
 11
5.046996
 21
4.253306
 31
0.0
  0
LINE
  5
A9C
  8
3
 10
4.967285
 20
4.253306
 30
0.0
 11
4.967285
 21
4.206338
 31
0.0
  0
LINE
  5
A9D
  8
3
 10
5.085501
 20
4.254285
 30
0.0
 11
5.085501
 21
4.037057
 31
0.0
  0
LINE
  5
A9E
  8
3
 10
4.967285
 20
4.206338
 30
0.0
 11
5.046996
 21
4.206338
 31
0.0
  0
LINE
  5
A9F
  8
3
 10
4.828951
 20
4.613396
 30
0.0
 11
4.828951
 21
4.78096
 31
0.0
  0
LINE
  5
AA0
  8
3
 10
4.985672
 20
4.78096
 30
0.0
 11
4.985672
 21
4.613396
 31
0.0
  0
LINE
  5
AA1
  8
3
 10
4.867456
 20
4.733013
 30
0.0
 11
4.947167
 21
4.733013
 31
0.0
  0
LINE
  5
AA2
  8
3
 10
4.828951
 20
4.78096
 30
0.0
 11
4.985672
 21
4.78096
 31
0.0
  0
LINE
  5
AA3
  8
3
 10
4.867456
 20
4.779982
 30
0.0
 11
4.867456
 21
4.733013
 31
0.0
  0
LINE
  5
AA4
  8
3
 10
4.947167
 20
4.733013
 30
0.0
 11
4.947167
 21
4.779982
 31
0.0
  0
LINE
  5
AA5
  8
3
 10
4.72878
 20
4.254285
 30
0.0
 11
4.885501
 21
4.254285
 31
0.0
  0
LINE
  5
AA6
  8
3
 10
4.885501
 20
4.037057
 30
0.0
 11
4.72878
 21
4.037057
 31
0.0
  0
LINE
  5
AA7
  8
3
 10
4.72878
 20
4.037057
 30
0.0
 11
4.72878
 21
4.254285
 31
0.0
  0
LINE
  5
AA8
  8
3
 10
4.846996
 20
4.206338
 30
0.0
 11
4.846996
 21
4.253306
 31
0.0
  0
LINE
  5
AA9
  8
3
 10
4.767285
 20
4.253306
 30
0.0
 11
4.767285
 21
4.206338
 31
0.0
  0
LINE
  5
AAA
  8
3
 10
4.885501
 20
4.254285
 30
0.0
 11
4.885501
 21
4.037057
 31
0.0
  0
LINE
  5
AAB
  8
3
 10
4.767285
 20
4.206338
 30
0.0
 11
4.846996
 21
4.206338
 31
0.0
  0
LINE
  5
AAC
  8
3
 10
4.628951
 20
4.613396
 30
0.0
 11
4.628951
 21
4.78096
 31
0.0
  0
LINE
  5
AAD
  8
3
 10
4.785672
 20
4.78096
 30
0.0
 11
4.785672
 21
4.613396
 31
0.0
  0
LINE
  5
AAE
  8
3
 10
4.667456
 20
4.733013
 30
0.0
 11
4.747167
 21
4.733013
 31
0.0
  0
LINE
  5
AAF
  8
3
 10
4.628951
 20
4.78096
 30
0.0
 11
4.785672
 21
4.78096
 31
0.0
  0
LINE
  5
AB0
  8
3
 10
4.667456
 20
4.779982
 30
0.0
 11
4.667456
 21
4.733013
 31
0.0
  0
LINE
  5
AB1
  8
3
 10
4.747167
 20
4.733013
 30
0.0
 11
4.747167
 21
4.779982
 31
0.0
  0
LINE
  5
AB2
  8
3
 10
4.52878
 20
4.254285
 30
0.0
 11
4.685501
 21
4.254285
 31
0.0
  0
LINE
  5
AB3
  8
3
 10
4.685501
 20
4.037057
 30
0.0
 11
4.52878
 21
4.037057
 31
0.0
  0
LINE
  5
AB4
  8
3
 10
4.52878
 20
4.037057
 30
0.0
 11
4.52878
 21
4.254285
 31
0.0
  0
LINE
  5
AB5
  8
3
 10
4.646996
 20
4.206338
 30
0.0
 11
4.646996
 21
4.253306
 31
0.0
  0
LINE
  5
AB6
  8
3
 10
4.567285
 20
4.253306
 30
0.0
 11
4.567285
 21
4.206338
 31
0.0
  0
LINE
  5
AB7
  8
3
 10
4.685501
 20
4.254285
 30
0.0
 11
4.685501
 21
4.037057
 31
0.0
  0
LINE
  5
AB8
  8
3
 10
4.567285
 20
4.206338
 30
0.0
 11
4.646996
 21
4.206338
 31
0.0
  0
LINE
  5
AB9
  8
3
 10
4.428951
 20
4.613396
 30
0.0
 11
4.428951
 21
4.78096
 31
0.0
  0
LINE
  5
ABA
  8
3
 10
4.585672
 20
4.78096
 30
0.0
 11
4.585672
 21
4.613396
 31
0.0
  0
LINE
  5
ABB
  8
3
 10
4.467456
 20
4.733013
 30
0.0
 11
4.547167
 21
4.733013
 31
0.0
  0
LINE
  5
ABC
  8
3
 10
4.428951
 20
4.78096
 30
0.0
 11
4.585672
 21
4.78096
 31
0.0
  0
LINE
  5
ABD
  8
3
 10
4.467456
 20
4.779982
 30
0.0
 11
4.467456
 21
4.733013
 31
0.0
  0
LINE
  5
ABE
  8
3
 10
4.547167
 20
4.733013
 30
0.0
 11
4.547167
 21
4.779982
 31
0.0
  0
LINE
  5
ABF
  8
3
 10
4.32878
 20
4.254285
 30
0.0
 11
4.485501
 21
4.254285
 31
0.0
  0
LINE
  5
AC0
  8
3
 10
4.485501
 20
4.037057
 30
0.0
 11
4.32878
 21
4.037057
 31
0.0
  0
LINE
  5
AC1
  8
3
 10
4.32878
 20
4.037057
 30
0.0
 11
4.32878
 21
4.254285
 31
0.0
  0
LINE
  5
AC2
  8
3
 10
4.446996
 20
4.206338
 30
0.0
 11
4.446996
 21
4.253306
 31
0.0
  0
LINE
  5
AC3
  8
3
 10
4.367285
 20
4.253306
 30
0.0
 11
4.367285
 21
4.206338
 31
0.0
  0
LINE
  5
AC4
  8
3
 10
4.485501
 20
4.254285
 30
0.0
 11
4.485501
 21
4.037057
 31
0.0
  0
LINE
  5
AC5
  8
3
 10
4.367285
 20
4.206338
 30
0.0
 11
4.446996
 21
4.206338
 31
0.0
  0
LINE
  5
AC6
  8
3
 10
4.228951
 20
4.613396
 30
0.0
 11
4.228951
 21
4.78096
 31
0.0
  0
LINE
  5
AC7
  8
3
 10
4.385672
 20
4.78096
 30
0.0
 11
4.385672
 21
4.613396
 31
0.0
  0
LINE
  5
AC8
  8
3
 10
4.267456
 20
4.733013
 30
0.0
 11
4.347167
 21
4.733013
 31
0.0
  0
LINE
  5
AC9
  8
3
 10
4.228951
 20
4.78096
 30
0.0
 11
4.385672
 21
4.78096
 31
0.0
  0
LINE
  5
ACA
  8
3
 10
4.267456
 20
4.779982
 30
0.0
 11
4.267456
 21
4.733013
 31
0.0
  0
LINE
  5
ACB
  8
3
 10
4.347167
 20
4.733013
 30
0.0
 11
4.347167
 21
4.779982
 31
0.0
  0
LINE
  5
ACC
  8
3
 10
4.12878
 20
4.254285
 30
0.0
 11
4.285501
 21
4.254285
 31
0.0
  0
LINE
  5
ACD
  8
3
 10
4.285501
 20
4.037057
 30
0.0
 11
4.12878
 21
4.037057
 31
0.0
  0
LINE
  5
ACE
  8
3
 10
4.12878
 20
4.037057
 30
0.0
 11
4.12878
 21
4.254285
 31
0.0
  0
LINE
  5
ACF
  8
3
 10
4.246996
 20
4.206338
 30
0.0
 11
4.246996
 21
4.253306
 31
0.0
  0
LINE
  5
AD0
  8
3
 10
4.167285
 20
4.253306
 30
0.0
 11
4.167285
 21
4.206338
 31
0.0
  0
LINE
  5
AD1
  8
3
 10
4.285501
 20
4.254285
 30
0.0
 11
4.285501
 21
4.037057
 31
0.0
  0
LINE
  5
AD2
  8
3
 10
4.167285
 20
4.206338
 30
0.0
 11
4.246996
 21
4.206338
 31
0.0
  0
LINE
  5
AD3
  8
3
 10
4.028951
 20
4.557621
 30
0.0
 11
4.028951
 21
4.78096
 31
0.0
  0
LINE
  5
AD4
  8
3
 10
4.185672
 20
4.78096
 30
0.0
 11
4.185672
 21
4.613396
 31
0.0
  0
LINE
  5
AD5
  8
3
 10
4.067456
 20
4.733013
 30
0.0
 11
4.147167
 21
4.733013
 31
0.0
  0
LINE
  5
AD6
  8
3
 10
4.028951
 20
4.78096
 30
0.0
 11
4.185672
 21
4.78096
 31
0.0
  0
LINE
  5
AD7
  8
3
 10
4.067456
 20
4.779982
 30
0.0
 11
4.067456
 21
4.733013
 31
0.0
  0
LINE
  5
AD8
  8
3
 10
4.147167
 20
4.733013
 30
0.0
 11
4.147167
 21
4.779982
 31
0.0
  0
TEXT
  5
AD9
  8
0
 10
4.763964
 20
4.415418
 30
0.0
 40
0.08
  1
9
  7
ROMANS
  0
TEXT
  5
ADA
  8
0
 10
4.563964
 20
4.415418
 30
0.0
 40
0.08
  1
8
  7
ROMANS
  0
TEXT
  5
ADB
  8
0
 10
4.363964
 20
4.415418
 30
0.0
 40
0.08
  1
7
  7
ROMANS
  0
TEXT
  5
ADC
  8
0
 10
4.163964
 20
4.415418
 30
0.0
 40
0.08
  1
6
  7
ROMANS
  0
TEXT
  5
ADD
  8
0
 10
4.871931
 20
4.911085
 30
0.0
 40
0.08
  1
5
  7
ROMANS
  0
TEXT
  5
ADE
  8
0
 10
4.671931
 20
4.911085
 30
0.0
 40
0.08
  1
4
  7
ROMANS
  0
TEXT
  5
ADF
  8
0
 10
4.471931
 20
4.911085
 30
0.0
 40
0.08
  1
3
  7
ROMANS
  0
TEXT
  5
AE0
  8
0
 10
4.271931
 20
4.911085
 30
0.0
 40
0.08
  1
2
  7
ROMANS
  0
TEXT
  5
AE1
  8
0
 10
4.071931
 20
4.911085
 30
0.0
 40
0.08
  1
1
  7
ROMANS
  0
LINE
  5
AE2
  8
3
 10
4.11542
 20
3.351646
 30
0.0
 11
4.11542
 21
3.954123
 31
0.0
  0
LINE
  5
AE3
  8
3
 10
4.998701
 20
3.351646
 30
0.0
 11
4.998701
 21
3.954123
 31
0.0
  0
LINE
  5
AE4
  8
3
 10
5.005389
 20
5.111486
 30
0.0
 11
5.005389
 21
4.613396
 31
0.0
  0
LINE
  5
AE5
  8
3
 10
5.105389
 20
4.613396
 30
0.0
 11
5.105389
 21
3.954123
 31
0.0
  0
LINE
  5
AE6
  8
3
 10
4.605389
 20
5.111486
 30
0.0
 11
4.605389
 21
4.613396
 31
0.0
  0
LINE
  5
AE7
  8
3
 10
4.705389
 20
4.613396
 30
0.0
 11
4.705389
 21
3.954123
 31
0.0
  0
LINE
  5
AE8
  8
3
 10
4.005389
 20
5.111486
 30
0.0
 11
4.005389
 21
3.954123
 31
0.0
  0
LINE
  5
AE9
  8
3
 10
4.105389
 20
4.613396
 30
0.0
 11
4.105389
 21
3.954123
 31
0.0
  0
LINE
  5
AEA
  8
0
 10
7.003331
 20
7.555178
 30
0.0
 11
7.003331
 21
7.989178
 31
0.0
  0
LINE
  5
AEB
  8
0
 10
7.137856
 20
7.555178
 30
0.0
 11
7.137856
 21
7.989178
 31
0.0
  0
LINE
  5
AEC
  8
0
 10
7.137856
 20
7.555178
 30
0.0
 11
7.003331
 21
7.555178
 31
0.0
  0
LINE
  5
AED
  8
0
 10
7.137856
 20
7.989178
 30
0.0
 11
7.003331
 21
7.989178
 31
0.0
  0
LINE
  5
AEE
  8
0
 10
7.098798
 20
7.555178
 30
0.0
 11
7.098798
 21
7.989178
 31
0.0
  0
LINE
  5
AEF
  8
0
 10
7.137856
 20
7.846178
 30
0.0
 11
7.638561
 21
7.846178
 31
0.0
  0
LINE
  5
AF0
  8
0
 10
7.137856
 20
7.698178
 30
0.0
 11
7.638561
 21
7.698178
 31
0.0
  0
LINE
  5
AF1
  8
0
 10
7.137856
 20
7.792178
 30
0.0
 11
7.638561
 21
7.792178
 31
0.0
  0
LINE
  5
AF2
  8
0
 10
7.137856
 20
7.752178
 30
0.0
 11
7.638561
 21
7.752178
 31
0.0
  0
LINE
  5
AF3
  8
0
 10
5.338611
 20
7.550615
 30
0.0
 11
5.338611
 21
7.985701
 31
0.0
  0
LINE
  5
AF4
  8
0
 10
3.848662
 20
7.985701
 30
0.0
 11
3.848662
 21
7.550615
 31
0.0
  0
LINE
  5
AF5
  8
0
 10
3.848662
 20
7.550615
 30
0.0
 11
5.338611
 21
7.550615
 31
0.0
  0
LINE
  5
AF6
  8
0
 10
4.008611
 20
7.550615
 30
0.0
 11
4.008611
 21
7.985701
 31
0.0
  0
LINE
  5
AF7
  8
0
 10
5.178611
 20
7.550615
 30
0.0
 11
5.178611
 21
7.985701
 31
0.0
  0
LINE
  5
AF8
  8
0
 10
4.008611
 20
7.942158
 30
0.0
 11
5.178611
 21
7.942158
 31
0.0
  0
LINE
  5
AF9
  8
0
 10
4.008611
 20
7.594158
 30
0.0
 11
5.178611
 21
7.594158
 31
0.0
  0
LINE
  5
AFA
  8
0
 10
5.338611
 20
7.985701
 30
0.0
 11
3.848662
 21
7.985701
 31
0.0
  0
TEXT
  5
AFB
  8
0
 10
5.303635
 20
7.568569
 30
0.0
 40
0.08
  1
VARIOFACE
 50
90.0
 41
0.65
  7
ROMANS
  0
TEXT
  5
AFC
  8
0
 10
3.888032
 20
7.968075
 30
0.0
 40
0.08
  1
VARIOFACE
 50
270.0
 41
0.65
  7
ROMANS
  0
TEXT
  5
B07
  8
0
 10
10.880094
 20
9.259101
 30
0.0
 40
0.1
  1

  7
ROMANS
  0
TRACE
  5
B09
  8
0
 10
5.201192
 20
9.001267
 30
0.0
 11
5.200552
 21
8.858878
 31
0.0
 12
5.337204
 22
8.862875
 32
0.0
 13
5.237204
 23
8.821442
 33
0.0
  0
TRACE
  5
B0A
  8
0
 10
5.337204
 20
8.862875
 30
0.0
 11
5.237204
 21
8.821442
 31
0.0
 12
5.337204
 22
7.984313
 32
0.0
 13
5.237204
 23
7.984313
 33
0.0
  0
TRACE
  5
B0B
  8
0
 10
5.337204
 20
6.810106
 30
0.0
 11
5.237204
 21
6.85154
 31
0.0
 12
5.337204
 22
7.552003
 32
0.0
 13
5.237204
 23
7.552003
 33
0.0
  0
TRACE
  5
B0C
  8
0
 10
5.104854
 20
6.577848
 30
0.0
 11
5.104051
 21
6.715874
 31
0.0
 12
5.337204
 22
6.810106
 32
0.0
 13
5.237204
 23
6.85154
 33
0.0
  0
LINE
  5
B0D
  8
3
 10
4.112501
 20
9.152178
 30
0.0
 11
4.112501
 21
9.279178
 31
0.0
  0
LINE
  5
B0E
  8
3
 10
4.996601
 20
9.152178
 30
0.0
 11
4.996601
 21
9.279178
 31
0.0
  0
DIMENSION
  5
BBA
  8
0
  2
*D0
 10
5.439142
 20
5.815066
 30
0.0
 11
4.55713
 21
5.815066
 31
0.0
 70
     0
  1
1.77(45)
 13
3.675119
 23
6.066867
 33
0.0
 14
5.439142
 24
6.066867
 34
0.0
1001
ACAD
1000
DSTYLE
1002
{
1070
   340
1005
2B
1070
   287
1070
     5
1002
}
  0
TEXT
  5
BBB
  8
0
 10
5.867952
 20
1.637662
 30
0.0
 40
0.08
  1
MILLIMETERS IN PARENTHESES
  7
ROMANS
  0
TEXT
  5
BBC
  8
0
 10
5.825951
 20
1.826513
 30
0.0
 40
0.08
  1
DIMENSIONS ARE IN INCHES
  7
ROMANS
  0
TEXT
  5
BBD
  8
0
 10
6.014953
 20
2.099298
 30
0.0
 40
0.08
  1
FLKM D 9 SUB/S 2281125
  7
ROMANS
  0
DIMENSION
  5
BCB
  8
0
  2
*D1
 10
5.754146
 20
6.255719
 30
0.0
 11
5.754146
 21
7.76653
 31
0.0
 70
     0
  1
3.0(77)
 13
5.544143
 23
9.27734
 33
0.0
 14
5.544143
 24
6.255719
 34
0.0
 50
90.0
1001
ACAD
1000
DSTYLE
1002
{
1070
   340
1005
2B
1070
   287
1070
     5
1002
}
  0
INSERT
  5
BD9
  8
0
  2
RAIL
 10
8.368703
 20
6.982043
 30
0.0
 50
90.0
  0
DIMENSION
  5
BE8
  8
0
  2
*D3
 10
8.757185
 20
5.710148
 30
0.0
 11
7.63367
 21
5.710148
 31
0.0
 70
     0
  1
2.3(58.5)
 13
6.510156
 23
6.990141
 33
0.0
 14
8.757185
 24
6.801289
 34
0.0
1001
ACAD
1000
DSTYLE
1002
{
1070
   340
1005
2B
1070
   287
1070
     5
1002
}
  0
ENDSEC
  0
EOF
